Welcome to FzMovies

The Best destination for Mobile/Tablet Movies


Follow us on social media for latest updates
Telegram - @FzGroup | Instagram - @FzMovie | Twitter - @FzGroup


MobileTVshows - TV shows / cartoons for mobiles in avi and mp4....http://www.mobiletvshows.net


Mediainfo Yeh Jawaani Hai Deewani

Yeh Jawaani Hai Deewani (in Bollywood Movies)
File: Yeh_Jawaani_Hai_Deewani_BluRay_high.mp4
File Size: 370 MB


General

Complete name : Yeh_Jawaani_Hai_Deewani_BluRay_high.mp4
Format : MPEG-4
Format profile : Base Media
Codec ID : isom (isom/iso2/avc1/mp41)
File size : 370 MiB
Duration : 2 h 40 min
Overall bit rate : 323 kb/s
Movie name : Yeh Jawaani Hai Deewani (2013) 1080p Blu-ray x264 DTS MSubs[DDR] (1)
Writing application : Lavf57.20.100

Video

ID : 1
Format : AVC
Format/Info : Advanced Video Codec
Format profile : [email protected]
Format settings : CABAC / 5 Ref Frames
Format settings, CABAC : Yes
Format settings, ReFrames : 5 frames
Codec ID : avc1
Codec ID/Info : Advanced Video Coding
Duration : 2 h 40 min
Bit rate : 270 kb/s
Width : 640 pixels
Height : 272 pixels
Display aspect ratio : 2.35:1
Frame rate mode : Constant
Frame rate : 24.000 FPS
Color space : YUV
Chroma subsampling : 4:2:0
Bit depth : 8 bits
Scan type : Progressive
Bits/(Pixel*Frame) : 0.065
Stream size : 309 MiB (84%)
Writing library : x264 core 148 r2 7599210
Encoding settings : cabac=1 / ref=5 / deblock=1:-1:-1 / analyse=0x3:0x113 / me=umh / subme=8 / psy=1 / psy_rd=1.00:0.15 / mixed_ref=1 / me_range=16 / chroma_me=1 / trellis=1 / 8x8dct=1 / cqm=0 / deadzone=21,11 / fast_pskip=1 / chroma_qp_offset=-3 / threads=8 / lookahead_threads=1 / sliced_threads=0 / nr=0 / decimate=1 / interlaced=0 / bluray_compat=0 / constrained_intra=0 / bframes=3 / b_pyramid=2 / b_adapt=2 / b_bias=0 / direct=3 / weightb=1 / open_gop=0 / weightp=2 / keyint=250 / keyint_min=24 / scenecut=40 / intra_refresh=0 / rc_lookahead=50 / rc=2pass / mbtree=1 / bitrate=270 / ratetol=1.0 / qcomp=0.60 / qpmin=0 / qpmax=69 / qpstep=4 / cplxblur=20.0 / qblur=0.5 / ip_ratio=1.40 / aq=1:1.00
Menus : 3
Codec configuration box : avcC

Audio

ID : 2
Format : AAC LC SBR
Format/Info : Advanced Audio Codec Low Complexity with Spectral Band Replication
Commercial name : HE-AAC
Format settings : NBC
Codec ID : mp4a-40-5
Duration : 2 h 40 min
Bit rate mode : Constant
Bit rate : 48.0 kb/s
Channel(s) : 1 channel
Channel layout : C
Sampling rate : 44.1 kHz
Frame rate : 21.533 FPS (2048 SPF)
Compression mode : Lossy
Stream size : 55.0 MiB (15%)
Language : Hindi
Default : Yes
Alternate group : 1
Menus : 3

Menu #1

ID : 3
Codec ID : text
Duration : 2 h 40 min
Language : English
Bit rate mode : CBR
Menu For : 1,2
00:00:00.000 : 00:00:00.000
00:01:15.750 : 00:01:15.750
00:02:38.083 : 00:02:38.083
00:03:53.958 : 00:03:53.958
00:06:14.333 : 00:06:14.333
00:07:04.875 : 00:07:04.875
00:12:22.708 : 00:12:22.708
00:18:25.125 : 00:18:25.125
00:29:48.500 : 00:29:48.500
00:34:37.000 : 00:34:37.000
00:39:41.792 : 00:39:41.792
00:48:44.917 : 00:48:44.917
00:52:18.250 : 00:52:18.250
00:54:58.083 : 00:54:58.083
00:59:00.750 : 00:59:00.750
01:01:50.250 : 01:01:50.250
01:06:20.667 : 01:06:20.667
01:12:29.625 : 01:12:29.625
01:14:09.250 : 01:14:09.250
01:17:30.708 : 01:17:30.708
01:22:17.333 : 01:22:17.333
01:24:30.417 : 01:24:30.417
01:26:48.042 : 01:26:48.042
01:30:46.875 : 01:30:46.875
01:40:09.917 : 01:40:09.917
01:47:02.083 : 01:47:02.083
01:51:42.833 : 01:51:42.833
01:54:48.958 : 01:54:48.958
02:05:13.875 : 02:05:13.875
02:08:22.125 : 02:08:22.125
02:12:20.542 : 02:12:20.542
02:16:02.417 : 02:16:02.417
02:19:44.167 : 02:19:44.167
02:26:36.083 : 02:26:36.083
02:33:14.125 : 02:33:14.125

Menu #2

00:00:00.000 : 00:00:00.000
00:01:15.750 : 00:01:15.750
00:02:38.083 : 00:02:38.083
00:03:53.958 : 00:03:53.958
00:06:14.333 : 00:06:14.333
00:07:04.875 : 00:07:04.875
00:12:22.708 : 00:12:22.708
00:18:25.125 : 00:18:25.125
00:29:48.500 : 00:29:48.500
00:34:37.000 : 00:34:37.000
00:39:41.792 : 00:39:41.792
00:48:44.917 : 00:48:44.917
00:52:18.250 : 00:52:18.250
00:54:58.083 : 00:54:58.083
00:59:00.750 : 00:59:00.750
01:01:50.250 : 01:01:50.250
01:06:20.667 : 01:06:20.667
01:12:29.625 : 01:12:29.625
01:14:09.250 : 01:14:09.250
01:17:30.708 : 01:17:30.708
01:22:17.333 : 01:22:17.333
01:24:30.417 : 01:24:30.417
01:26:48.042 : 01:26:48.042
01:30:46.875 : 01:30:46.875
01:40:09.917 : 01:40:09.917
01:47:02.083 : 01:47:02.083
01:51:42.833 : 01:51:42.833
01:54:48.958 : 01:54:48.958
02:05:13.875 : 02:05:13.875
02:08:22.125 : 02:08:22.125
02:12:20.542 : 02:12:20.542
02:16:02.417 : 02:16:02.417
02:19:44.167 : 02:19:44.167
02:26:36.083 : 02:26:36.083
02:33:14.125 : 02:33:14.125

Download Yeh Jawaani Hai Deewani ()

Yeh Jawaani Hai Deewani (in Bollywood Movies)
File: Yeh_Jawaani_Hai_Deewani_BluRay_high.mp4
File Size: 370 MB
Загрузка...