Welcome to FzMovies

The Best destination for Mobile/Tablet Movies


Join our Telegram Channel to get latest updates Join @FzGroup

Follow us on Instagram @FzMovie

Follow us on Twitter to get latest updates Follow @FzGroup
Loading...

If you're using Opera/UC Browser (or other non mainstream browsers) and having trouble browsing the website smoothly, Here is a solution:

Disable the Data Saver/AdBlock in your browser and use the following links:https://t.co/ES3L3Frnt2https://t.co/ecm0fFCPWK

— FzMovies (@FzGroup) November 28, 2018

MobileTVshows - TV shows / cartoons for mobiles in avi and mp4....http://www.mobiletvshows.net


Mediainfo Berlin I Love You

Berlin I Love You (in Hollywood Movies)
File: Berlin_I_Love_You_WEB-DL_high.mp4
File Size: 290 MB


General

Complete name : Berlin_I_Love_You_WEB-DL_high.mp4
Format : MPEG-4
Format profile : Base Media
Codec ID : isom (isom/iso2/avc1/mp41)
File size : 290 MiB
Duration : 1 h 59 min
Overall bit rate mode : Variable
Overall bit rate : 338 kb/s
Movie name : CMRG
Writing application : Lavf58.17.101

Video

ID : 1
Format : AVC
Format/Info : Advanced Video Codec
Format profile : [email protected]
Format settings : CABAC / 5 Ref Frames
Format settings, CABAC : Yes
Format settings, ReFrames : 5 frames
Codec ID : avc1
Codec ID/Info : Advanced Video Coding
Duration : 1 h 59 min
Bit rate : 270 kb/s
Width : 640 pixels
Height : 344 pixels
Display aspect ratio : 1.85:1
Frame rate mode : Constant
Frame rate : 23.976 (24000/1001) FPS
Color space : YUV
Chroma subsampling : 4:2:0
Bit depth : 8 bits
Scan type : Progressive
Bits/(Pixel*Frame) : 0.051
Stream size : 231 MiB (80%)
Writing library : x264 core 157
Encoding settings : cabac=1 / ref=5 / deblock=1:-1:-1 / analyse=0x3:0x113 / me=hex / subme=8 / psy=1 / psy_rd=1.00:0.15 / mixed_ref=1 / me_range=16 / chroma_me=1 / trellis=2 / 8x8dct=1 / cqm=0 / deadzone=21,11 / fast_pskip=1 / chroma_qp_offset=-3 / threads=11 / lookahead_threads=1 / sliced_threads=0 / nr=0 / decimate=1 / interlaced=0 / bluray_compat=0 / constrained_intra=0 / bframes=3 / b_pyramid=2 / b_adapt=1 / b_bias=0 / direct=3 / weightb=1 / open_gop=0 / weightp=2 / keyint=250 / keyint_min=23 / scenecut=40 / intra_refresh=0 / rc_lookahead=50 / rc=2pass / mbtree=1 / bitrate=270 / ratetol=1.0 / qcomp=0.60 / qpmin=0 / qpmax=69 / qpstep=4 / cplxblur=20.0 / qblur=0.5 / ip_ratio=1.40 / aq=1:1.00
Language : English
Menus : 3
Codec configuration box : avcC

Audio

ID : 2
Format : AAC LC SBR
Format/Info : Advanced Audio Codec Low Complexity with Spectral Band Replication
Commercial name : HE-AAC
Format settings : NBC
Codec ID : mp4a-40-5
Duration : 1 h 59 min
Duration_LastFrame : -29 ms
Bit rate mode : Variable
Bit rate : 64.0 kb/s
Maximum bit rate : 96.0 kb/s
Channel(s) : 1 channel
Channel layout : C
Sampling rate : 44.1 kHz
Frame rate : 21.533 FPS (2048 SPF)
Compression mode : Lossy
Stream size : 54.9 MiB (19%)
Language : English
Default : Yes
Alternate group : 1
Menus : 3

Menu #1

ID : 3
Codec ID : text
Duration : 1 h 59 min
Language : English
Menu For : 1,2
00:00:00.000 : 1
00:12:29.000 : 2
00:20:02.000 : 3
00:31:07.000 : 4
00:43:35.000 : 5
00:52:40.000 : 6
01:04:23.000 : 7
01:12:48.000 : 8
01:19:10.000 : 9
01:27:21.000 : 10
01:37:15.000 : 11
01:47:10.000 : 12
Bit rate mode : VBR

Menu #2

00:00:00.000 : 1
00:12:29.000 : 2
00:20:02.000 : 3
00:31:07.000 : 4
00:43:35.000 : 5
00:52:40.000 : 6
01:04:23.000 : 7
01:12:48.000 : 8
01:19:10.000 : 9
01:27:21.000 : 10
01:37:15.000 : 11
01:47:10.000 : 12

Download Berlin I Love You ()

Berlin I Love You (in Hollywood Movies)
File: Berlin_I_Love_You_WEB-DL_high.mp4
File Size: 290 MB
Loading...